» » Air Strike

Air Strike

Movie Air Strike download torrent for free in professional voice acting. To start watching you need to click on the download button and after a few minutes you will be able to play the movie high quality hd 720 and hd 1080 in your PC. Enjoy watching!

3 802 1 09:55, 05-11-2018
Poster Air Strike torrent download
WEB-DLRip 05 November 2018
4.1/10967 votes
Year2018 Country:China Genre:Movies / Action / Adventure / Drama / History / War Director:Xiao Feng Cast:Ye Liu, Bruce Willis, Seung-heon Song Release Date:17 October 2018 Language:English Time: 120 min
0
Plot
  • 1
  • 2
  • 3
  • 4
  • 5
  • 6
  • 7
  • 8
  • 9
  • 10
0
Actor play
  • 1
  • 2
  • 3
  • 4
  • 5
  • 6
  • 7
  • 8
  • 9
  • 10
0
Special effects
  • 1
  • 2
  • 3
  • 4
  • 5
  • 6
  • 7
  • 8
  • 9
  • 10
0
Impression
  • 1
  • 2
  • 3
  • 4
  • 5
  • 6
  • 7
  • 8
  • 9
  • 10
Final grade: 0.0 out of 10
Movie scenes Screenshot Air Strike movie download Screenshot Air Strike movie download Screenshot Air Strike movie download
About movie Air Strike
The longstanding, armed confrontation between the Chinese state and Japan officially lasted eight long years, starting in 1937. However, the first conflict situations of the warring countries begin long before a certain historical date, reliable sources. This includes the dramatic events that occurred during the unforeseen bombardment of the infamous Pearl Harbor by the Japanese invaders. The raid of enemy air force formations ended with a huge number of casualties on the part of the American army. During the prolonged Sino-Japanese conflict, the Japanese military personnel were quite a number of monstrous actions contradicting human moral norms aimed at destroying an entire nation. This led to the death of more than 35 million Chinese. You can download torrent Air Strike movie 2018 in good quality for free without registration.

The imperialist, Japanese authorities were then very aggressive, with a strictly defined policy orientation, not accepting compromise decisions, adhering exclusively to their own interests. Japan was going to seize vast Chinese territories through occupation measures in order to establish a totalitarian regime there, turning the civilian population into disenfranchised, dumb performers of the established order. To achieve the planned goals, the invaders did not disdain the most cruel, bloody ways to achieve the desired result. As a result, large-scale, armed confrontations of the local population with the ruthless occupiers began. Helped by the Chinese in the face of the onslaught of a stronger enemy, the Chinese army provided invaluable support to leading the liberation actions of the fighting.

Download Air Strike (2018) WEB-DLRip

Downloads:
WEB-DLRip1.75 GB Download torrent
MediainfoVideo
ID: 1
Format: AVC
Format/Info: Advanced Video Codec
Format profile: [email protected]
Format settings: CABAC / 4 Ref Frames
Format settings, CABAC: Yes
Format settings, RefFrames: 4 frames
Codec ID: V_MPEG4/ISO/AVC
Duration: 1 h 36 min
Bit rate: 2 200 kb/s
Width: 1 908 pixels
Height: 792 pixels
Display aspect ratio: 2.40:1
Frame rate mode: Constant
Frame rate: 23.976 (24000/1001) FPS
Color space: YUV
Chroma subsampling: 4:2:0
Bit depth: 8 bits
Scan type: Progressive
Bits/(Pixel*Frame): 0.061
Stream size: 1.49 GiB (85%)
Writing library: x264 core 155 r2901 7d0ff22
Default: Yes
Forced: No

Audio
ID: 2
Format: AC-3
Format/Info: Audio Coding 3
Codec ID: A_AC3
Duration: 1 h 36 min
Bit rate mode: Constant
Bit rate: 384 kb/s
Channel(s): 6 channels
Channel positions: Front: L C R, Side: L R, LFE
Sampling rate: 48.0 kHz
Frame rate: 31.250 FPS (1536 SPF)
Bit depth: 16 bits
Compression mode: Lossy
Stream size: 266 MiB (15%)
Service kind: Complete Main
Default: Yes
Forced: No
Trailer
  1. Add favorites
  2. Сomplaint
  3. Light
Reviews - 1

Have you looked at everything? We offer you to share your feedback from what you see! Your review will be useful to viewers who are just about to watch this movie.

MoviesJul 05 November 2018 09:57
Xiao Feng is a good Chinese screenwriter and director, even took a couple of strong and interesting pictures, but he has not yet achieved any serious success. The film “Inflexible Spirit” will be another chance for him to prove himself from the positive side in this film industry, I hope to cope with at least 80 percent of his capabilities. I somehow had a chance to watch one of his directorial films, the film more upset than pleased. I think he made conclusions regarding his failures and is ready to surprise his fans.

New reviews

  1. YoungMidoriya YoungMidoriya22 May 16:24 Not true HD, i think it's HDTS 1080... Us
  2. YoungMidoriya YoungMidoriya18 May 03:03 Karna, seems like there won't be any good print till official DVD release.... Captain Marvel
  3. Admin Admin01 May 15:18 jezyk403, how to download (manual)... Intensive Care
  4. jezyk403 jezyk40327 April 03:16 why can"t downolad?... Intensive Care
  5. Admin Admin21 April 15:09 acier58, Thank you, fixed.... Drunk Parents
All reviews